Mit PC gebrannte DVDs laufen nicht auf DVD-Player aber auf PC, Ursachen?

Hallo zusammen,

ich habe damals mit einem Panasonic-Festplattenrecorder (jetzt circa 10 Jahre alt) mehrere Filme aufgenommen und mit diesem auf DVD gebrannt (VOB-Dateiformat). Im laufe der Jahre hat sich da ein riesen Stapel angesammelt und nun wollte ich einmal ausmisten, also die Filme , die ich behalten möchte, habe ich von den DVDs auf den PC (HP-Notebook, circa 1 Jahr alt, 16 GB RAM, war fast 1.000 Euro teuer) kopiert, und dann auf einen neuen DVD-Roling (DVD-R) gebrannt.

Mein Problem ist jetzt, dass die neu gebrannten DVDs zwar auf dem PC und meiner Playstation 3 laufen, jedoch auf keinem DVD-Player (weder auf älteren, noch auf neueren). Die alten DVDs, von denen ich mir die zu brennenden Filme auf den PC kopiert habe, um mir neue DVDs zusammenzustellen, werden von den selben DVD-Playern gelesen (aber wie gesagt nicht die neu gebrannten).

Wenn ich einen DVD-Roling in den PC einlege, muss man ja bei Windows 10 den Verwendungszweck angeben, also zwischen "Wie eine CD/DVD verwenden" und "Wie ein USB-Speicherstück verwenden" wählen. Habe beide Varianten ausprobiert - jedes mal ohne Erfolg.

Es muss doch möglich sein, DVDs mit dem PC zu brennen, die dann auch von DVD-Playern - und nicht nur vom PC und der PS 3 - abgespielt werden, oder ???

Für einen Rat wäre ich Euch echt dankbar,

LG.: Chris

PC, Computer, DVD, Technik, DVD Brennen, DVD-Player, DVD-Recorder, Technologie, Windows 10, Spiele und Gaming
DVDStyler MUX STATUS: Frame data under-runs detected! Was tun?
DVDStyler v2.9.3

Windows 7 (Erzeugungsversion 7601, Service Pack 1) FFmpeg: libavformat 56.37.100, libavcodec 56.41.100, libavutil 54.27.100 Vorbereiten Temporären Ordner leeren Nach transkodierten Dateien im Cache suchen ============================================================================= | Input size | Output duration | Bitrate | Estimated output size VMGM menu 1 | | 0:35.635 sec | 6.0 MB/s | 8.7 MB mp3 | 5.7 MB | | 192 KB/s | 5.8 MB Title 1 mp4 | 859.7 MB | 15:22.623 sec | 8.0 MB/s | 922.6 MB Title 2 mp4 | 1362.2 MB | 12:42.495 sec | 8.0 MB/s | 762.5 MB Total | | 28:40.755 sec | | 1699.6 MB ============================================================================= Menüs werden erstellt Menü 1 von 1 wird erstellt Menü-MPEG erstellen Videolaufzeit: 35.635600 s Enkodierung des Frames 1 von 1067 Enkodierung des Frames 101 von 1067 Enkodierung des Frames 201 von 1067 Enkodierung des Frames 301 von 1067 Enkodierung des Frames 401 von 1067 Enkodierung des Frames 501 von 1067 Enkodierung des Frames 601 von 1067 Enkodierung des Frames 701 von 1067 Enkodierung des Frames 801 von 1067 Enkodierung des Frames 901 von 1067 Enkodierung des Frames 1001 von 1067 Multiplexen von Audio und Video Transkodieren der Videodatei:C:\Users\KK04\AppData\Local\Temp\dvd-tmp\menu0-0.mpg_bg.m2v Need encode: true, use mplex: true Executing command: ffmpeg -threads 3 -i "C:\Users\KK04\AppData\Local\Temp\dvd-tmp\menu0-0.mpg_bg.m2v" -i "C:\Users\KK04\Desktop\Neuer Ordner\Pady\Pady\Video\Alex II 2015 Amsterdam-Grimsby-Bremerhaven\Video\Adrian von Ziegler - Where I Belong.mp3" -f mpeg2video -c:v:0 copy -map 0:0 "C:\Users\KK04\AppData\Local\Temp\dvd-tmp\menu0-0.mpg_bg.mpg.m2v" -f ac3 -b:a 192000 -ar 48000 -c:a:0 ac3 -map 1:0 "C:\Users\KK04\AppData\Local\Temp\dvd-tmp\menu0-0.mpg_bg.mpg.audio0" ffmpeg version N-73010-gbb3703a Copyright (c) 2000-2015 the FFmpeg developers built with gcc 4.9.2 (GCC) libavutil 54. 27.100 / 54. 27.100 libavcodec 56. 41.100 / 56. 41.100 libavformat 56. 37.100 / 56. 37.100 libavdevice 56. 4.100 / 56. 4.100 libavfilter 5. 17.100 / 5. 17.100 libswscale 3. 1.101 / 3. 1.101 libswresample 1. 2.100 / 1. 2.100 libpostproc 53. 3.100 / 53. 3.100 Input #0, mpegvideo, from 'C:\Users\KK04\AppData\Local\Temp\dvd-tmp\menu0-0.mpg_bg.m2v': Duration: N/A, bitrate: N/A Stream #0:0: Video: mpeg2video (Main), yuv420p(tv), 720x480 [SAR 32:27 DAR 16:9], max. 9000 kb/s, 29.97 fps, 29.97 tbr, 1200k tbn, 59.94 tbc [mp3 @ 0232d6a0] Skipping 0 bytes of junk at 4722. Input #1, mp3, from 'C:\Users\KK04\Desktop\Neuer Ordner\Pady\Pady\Video\Alex II 2015 Amsterdam-Grimsby-Bremerhaven\Video\Adrian von Ziegler - Where I Belong.mp3': Metadata: title : Where I Belong artist : Adrian von Ziegler Duration: 00:04:07.04, start: 0.025057, bitrate: 192 kb/s Stream #1:0: Audio: mp3,

Video, DVD, DVD Brennen

Meistgelesene Fragen zum Thema DVD Brennen