Es gibt Addons wie User Agent Switcher, die haben aber Probleme wirklich glaibwürdig zu sein, oft wird man durch sollche Addons noch leichter zu tracken

LG

...zur Antwort

Unter Linux/Linux (Mac keine Ahnung)

[ALT] + [TAB] oder [STRG] + [ALT] + [TAB]

LG

...zur Antwort

Es gibt zwar kein Problem ihn zu fragen, aber wenn du dass nicht möchtest, kann ich dir die Möglichkeiten nennen, die er gibt:

  1. Er hat sich ein kleines Programm geschrieben, dass vorgibt eine Tastatur zu sein und den Benutzernamen/Passwort eingibt und Enter drückt
  2. Er benutzt einen Passwortmanager, welches alle seine Passwörter speichert.

Er könnte aber auch einfach(bei den meisten Diensten) "angemeldet bleiben", dann wird das Passwort im Browser gespeichert

Hoffe es war einigermaßen verständlich

LG

...zur Antwort

Meinst du die Karikaturen oder Trump?
Karikaturen wären auf jeden Fall einfach zu beantworten,
Das ist Satire, also überspitz. Sie thematisieren ein(in diesem Fall) politisches Thema und kritisieren ein Verhalten o.ä.

Wenn du Trump meinst, dann wir dass leider schwer zu beantworten, ich kann mich auch nur noch über ihn aufregen, es passiert kaum gutes, es ist kein Grund zu erkennen, Logik fehlt komplett, Fake News, Hetzen(teilweise sogar gegen Minderheiten oder den Staat), Fakten leugnen.
Dazu kommt, was gerade in "seinem" Land so los ist:Waldbrände, Polizeigewalt, "Aufstände"/Unruhen, "Korruption", Corona, Waffensituation, Politische Situation....
Einiges Leugnet er, bzw. die Ursachen.

Und ganz aktuell: Verstoen gegen Coronaregeln

-----
Du kannst ja deine Schlüsse daraus ziehen, ich habe keinen Schimmer, warum er dass alles haben möchte...

LG

...zur Antwort
Wir müssen etwas Angst haben

Wenn man sich die Politik von Erdogan so anschaut, dann weiß man, dass er keine halben Sachen macht und auf jeden Fall eine Gefahr darstellt.

Macron spielt hier vielleicht mit dem Feuer, aber es ist wichtig, ihm nicht alles zu geben, was er haben will, wenn man sich nicht dagegenstellt, dann hat man automatisch verloren, so schnell wird er Europa/Frankreich/NATO jetzt auch nicht den Krieg erklären. Gegen die NATO, hat selbst die Türkei keine Chance

LG

...zur Antwort
Nein, weil

Erstmal wäre Telegram wahrscheinlich nicht die beste Wahl um sich sicher zu verständigen, da würde ich eher Threema oder Signal nehmen oder im Zweifel sogar Whattsapp.

Davon mal abgesehen, kann man natürlich kritisieren, dass sich auf den Platformen(aus irgendeinem Grund, besonders Telegram, aber auch Threema/Signal), illegale Dinge sehr sicher besprechen etc. kann, andererseits aber auch die guten Seiten beleuchten.
Beim Darknet funktioniert dass gerade nicht. Das Darknet wird in den Medien välschlicherweise immer als "das Böse" dargestellt, deswegen ist es gut, dass beide Seiten beleuchtet werden, allerdings sollte beides selbstverständlich Objektiv betrachtet/bewertet werden, damit sich der Leser selber eine Meinung bilden kann

LG

...zur Antwort
Nein, es lohnt sich nicht

Ein Smartphone für über 1000 Euro lohnt sich niemals :D

LG

...zur Antwort
description='Beschreibung' Enddatei.mp3
ffmpeg version 3.4.8-0ubuntu0.2 Copyright (c) 2000-2020 the FFmpeg developers
  built with gcc 7 (Ubuntu 7.5.0-3ubuntu1~18.04)
  configuration: --prefix=/usr --extra-version=0ubuntu0.2 --toolchain=hardened --libdir=/usr/lib/x86_64-linux-gnu --incdir=/usr/include/x86_64-linux-gnu --enable-gpl --disable-stripping --enable-avresample --enable-avisynth --enable-gnutls --enable-ladspa --enable-libass --enable-libbluray --enable-libbs2b --enable-libcaca --enable-libcdio --enable-libflite --enable-libfontconfig --enable-libfreetype --enable-libfribidi --enable-libgme --enable-libgsm --enable-libmp3lame --enable-libmysofa --enable-libopenjpeg --enable-libopenmpt --enable-libopus --enable-libpulse --enable-librubberband --enable-librsvg --enable-libshine --enable-libsnappy --enable-libsoxr --enable-libspeex --enable-libssh --enable-libtheora --enable-libtwolame --enable-libvorbis --enable-libvpx --enable-libwavpack --enable-libwebp --enable-libx265 --enable-libxml2 --enable-libxvid --enable-libzmq --enable-libzvbi --enable-omx --enable-openal --enable-opengl --enable-sdl2 --enable-libdc1394 --enable-libdrm --enable-libiec61883 --enable-chromaprint --enable-frei0r --enable-libopencv --enable-libx264 --enable-shared
  libavutil      55. 78.100 / 55. 78.100
  libavcodec     57.107.100 / 57.107.100
  libavformat    57. 83.100 / 57. 83.100
  libavdevice    57. 10.100 / 57. 10.100
  libavfilter     6.107.100 /  6.107.100
  libavresample   3.  7.  0 /  3.  7.  0
  libswscale      4.  8.100 /  4.  8.100
  libswresample   2.  9.100 /  2.  9.100
  libpostproc    54.  7.100 / 54.  7.100
Input #0, mp3, from 'Namen.mp3':
  Metadata:
    genre           : Genre
    description     : Beschreibung
    title           : Titel
    author          : Interpret
    encoder         : Lavf57.83.100
  Duration: 00:03:54.91, start: 0.023021, bitrate: 142 kb/s
    Stream #0:0: Audio: mp3, 48000 Hz, stereo, s16p, 128 kb/s
    Metadata:
      encoder         : Lavc57.10
    Stream #0:1: Video: png, rgb24(pc), 1280x720, 90k tbr, 90k tbn, 90k tbc
    Metadata:
      comment         : Other
Stream mapping:
  Stream #0:1 -> #0:0 (png (native) -> png (native))
  Stream #0:0 -> #0:1 (mp3 (native) -> mp3 (libmp3lame))
Press [q] to stop, [?] for help
Output #0, mp3, to 'Enddatei.mp3':
  Metadata:
    author          : Interpret
    TCON            : Genre
    description     : Beschreibung
    TIT2            : Titel
    TSSE            : Lavf57.83.100
    Stream #0:0: Video: png, rgb24(progressive), 1280x720, q=2-31, 200 kb/s, 90k fps, 90k tbn, 90k tbc
    Metadata:
      comment         : Other
      encoder         : Lavc57.107.100 png
    Stream #0:1: Audio: mp3 (libmp3lame), 48000 Hz, stereo, s16p
    Metadata:
      encoder         : Lavc57.107.100 libmp3lame
frame=    1 fps=0.1 q=-0.0 Lsize=    4074kB time=00:03:54.88 bitrate= 142.1kbits/s speed=26.4x    
video:403kB audio:3670kB subtitle:0kB other streams:0kB global headers:0kB muxing overhead: 0.008583%
...zur Antwort
Informatik

Allerdings liegt das an meinem Interesse für Informatik, was du machen solltes, kann keiner hier wissen. Das musst du dir selbst überlegen

LG

...zur Antwort

Man muss manchmal eben nicht zufrieden sein, wenn man nicht eingesperrt oder gefoltert wird...

Es gibt viele Probleme die die Regierung in den Augen von mancht, indem sie Dinge falsch oder gar nicht anpacken o.ä.

Beispiele können hier bestimmt viele geben, ich bin gerade zu faul :D

LG

...zur Antwort

Wie wäre es mit reden? Das wäre wohl die einfachste Möglichkeit ;)

Sonst ist mir nicht bekannt, wie man jemanden davon abhalten könnte :D

LG

...zur Antwort

Nein :D

LG

...zur Antwort