DVDstyler subtitle Fehler, obwohl keine vorhanden sind?

...komplette Frage anzeigen

1 Antwort

FFMpeg-VBR Plugin Settings:

-----------------------------------------------------
VBR Threshold: 7000 kbps
2-Pass Threshold: 4500 kbps
HQ Threshold: 4500 kbps
Extreme HQ Threshold: 0 kbps
Medium Bitrate Threshold: 7000 kbps
Low Bitrate Threshold: 3500 kbps
-----------------------------------------------------

<24.11.2016 18:12:38,24>
File Name: E:\#####.mp3
Encoding Mode: HQ: NO Custom Quant Matrix:

Executing command generated by the ffmpeg-VBR plugin:
ffmpeg.exe -threads 8 -i "C:\Users\#####\AppData\Local\Temp\bs\dvd-tmp\menu0-0.mpg_bg.m2v" -i "E:\#########.mp3" -f mpeg2video -c:v:0 copy -map 0:v:0 "C:\Users\#####\AppData\Local\Temp\bs\dvd-tmp\menu0-0.mpg_bg.mpg.m2v" -f ac3 -b:a 192000 -ar 48000 -c:a:0 ac3 -map 1:a:0 "C:\Users\#####\AppData\Local\Temp\bs\dvd-tmp\menu0-0.mpg_bg.mpg.audio0"

ffmpeg version n3.1.2 Copyright (c) 2000-2016 the FFmpeg developers
built with gcc 5.4.0 (GCC)
libavutil 55. 28.100 / 55. 28.100
libavcodec 57. 48.101 / 57. 48.101
libavformat 57. 41.100 / 57. 41.100
libavdevice 57. 0.101 / 57. 0.101
libavfilter 6. 47.100 / 6. 47.100
libswscale 4. 1.100 / 4. 1.100
libswresample 2. 1.100 / 2. 1.100
libpostproc 54. 0.100 / 54. 0.100
[mpegvideo @ 0000000000675320] Estimating duration from bitrate, this may be inaccurate
Input #0, mpegvideo, from 'C:\Users\#####\AppData\Local\Temp\bs\dvd-tmp\menu0-0.mpg_bg.m2v':
Duration: 00:02:16.43, bitrate: 4999 kb/s
Stream #0:0: Video: mpeg2video (Main), yuv420p(tv), 720x576 [SAR 16:15 DAR 4:3], 5000 kb/s, 25 fps, 25 tbr, 1200k tbn, 50 tbc
Input #1, mp3, from 'E:\#####.mp3': Metadata:
title : BraveStarr Orchestral
Duration: 00:02:16.59, start: 0.025056, bitrate: 132 kb/s
Stream #1:0: Audio: mp3, 44100 Hz, stereo, s16p, 128 kb/s
Metadata:
encoder : LAME3.99r
Stream #1:1: Video: mjpeg, yuvj420p(pc, bt470bg/unknown/unknown), 1280x720 [SAR 1:1 DAR 16:9], 90k tbr, 90k tbn, 90k tbc
Metadata:
comment : Composer
[mpeg2video @ 00000000027b05c0] Using AVStream.codec to pass codec parameters to muxers is deprecated, use AVStream.codecpar instead.
[ac3 @ 00000000006ea800] Using AVStream.codec to pass codec parameters to muxers is deprecated, use AVStream.codecpar instead.
Output #0, mpeg2video, to 'C:\Users\#####\AppData\Local\Temp\bs\dvd-tmp\menu0-0.mpg_bg.mpg.m2v':
Metadata:
encoder : Lavf57.41.100
Stream #0:0: Video: mpeg2video, yuv420p(tv), 720x576 [SAR 16:15 DAR 4:3], q=2-31, 5000 kb/s, 25 fps, 25 tbr, 50 tbn, 50 tbc
Output #1, ac3, to 'C:\Users\#####\AppData\Local\Temp\bs\dvd-tmp\menu0-0.mpg_bg.mpg.audio0':
Metadata:
encoder : Lavf57.41.100
Stream #1:0: Audio: ac3, 48000 Hz, stereo, fltp, 192 kb/s
Metadata:
encoder : Lavc57.48.101 ac3
Stream mapping:
Stream #0:0 -> #0:0 (copy)
Stream #1:0 -> #1:0 (mp3 (native) -> ac3 (native))
Press [q] to stop, [?] for help
frame= 2651 fps=2651 q=-1.0 size= 64666kB time=00:01:46.02 bitrate=4996.6kbits/s speed= 106x

frame= 3413 fps=2697 q=-1.0 Lsize= 83269kB time=00:02:16.57 bitrate=4994.8kbits/s speed= 108x
video:83269kB audio:3201kB subtitle:0kB other streams:0kB global headers:0kB muxing overhead: unknown
Multiplexen von Audio und Video
Executing command: mplex -f 8 -S 0 -M -V -o "C:\Users\#####\AppData\Local\Temp\bs\dvd-tmp\menu0-0.mpg_bg.mpg" "C:\Users\#####\AppData\Local\Temp\bs\dvd-tmp\menu0-0.mpg_bg.mpg.m2v" "C:\Users\#####\AppData\Local\Temp\bs\dvd-tmp\menu0-0.mpg_bg.mpg.audio0" INFO: [???] mplex version 2.1.0 (2.2.7 $Date: 2012/11/17 01:55:16 $)
INFO: [???] File C:\Users\#####\AppData\Local\Temp\bs\dvd-tmp\menu0-0.mpg_bg.mpg.m2v looks like an MPEG Video stream.
INFO: [???] File C:\Users\#####\AppData\Local\Temp\bs\dvd-tmp\menu0-0.mpg_bg.mpg.audio0 looks like an AC3 Audio stream.
INFO: [???] Video stream 0: profile 8 selected - ignoring non-standard options!
INFO: [???] Found 1 audio streams, 1 video streams and 0 subtitle streams
INFO: [???] Selecting dvdauthor DVD output profile
INFO: [???] Multiplexing video program stream!
INFO: [???] Scanning for header info: Video stream e0 (C:\Users\#####\AppData\Local\Temp\bs\dvd-tmp\menu0-0.mpg_bg.mpg.m2v)
INFO: [???] VIDEO STREAM: e0
INFO: [???] Frame width : 720
INFO: [???] Frame height : 576
INFO: [???] Aspect ratio : 4:3 display
INFO: [???] Picture rate : 25.000 frames/sec
INFO: [???] Bit rate : 5000000 bits/sec
INFO: [???] Vbv buffer size : 229376 bytes
INFO: [???] CSPF : 0
INFO: [???] Scanning for header info: AC3 Audio stream 00 (C:\Users\#####\AppData\Local\Temp\bs\dvd-tmp\menu0-0.mpg_bg.mpg.audio0)
INFO: [???] AC3 frame size = 768
INFO: [???] AC3 AUDIO STREAM:
INFO: [???] Bit rate : 24576 bytes/sec (192 kbit/sec)
INFO: [???] Frequency : 48000 Hz
INFO: [???] SYSTEMS/PROGRAM stream:
INFO: [???] rough-guess multiplexed stream data rate : 5304344
INFO: [???] target data-rate specified : 10080000
INFO: [???] Setting specified specified data rate: 10080000
INFO: [???] Run-in delay = 10800 Video delay = 10800 Audio delay = 14400
INFO: [???] New sequence commences...
INFO: [???] Video e0: buf= 0 frame=000000 sector=00000000
INFO: [???] Audio bd: buf= 0 frame=000000 sector=00000000
INFO: [???] STREAM bd completed
INFO: [???] STREAM e0 completed
INFO: [???] Multiplex completion at SCR=12259620.
INFO: [???] Video e0: completed
INFO: [???] Audio bd: completed
INFO: [???] VIDEO_STATISTICS: e0
INFO: [???] Video Stream length: 85267656 bytes
INFO: [???] Sequence headers: 285
INFO: [???] Sequence ends : 0
INFO: [???] No. Pictures : 3412
INFO: [???] No. Groups : 285
INFO: [???] No. I Frames : 285 avg. size 77154 bytes
INFO: [???] No. P Frames : 3128 avg. size 20224 bytes
INFO: [???] No. B Frames : 0 avg. size 0 bytes
INFO: [???] Average bit-rate : 4996400 bits/sec
INFO: [???] Peak bit-rate : 5000000 bits/sec
INFO: [???] BUFFERING min 292 Buf max 165565
INFO: [???] AUDIO_STATISTICS: bd
INFO: [???] Audio stream length 3277824 bytes.
INFO: [???] Frames : 4268
INFO: [???] BUFFERING min 67 Buf max 2083
INFO: [???] MUX STATUS: no under-runs detected.

Was möchtest Du wissen?